Alter Bridge - 2013 - Fortress

  • Category Music
  • Type MP3
  • Language English
  • Total size 142.9 MB
  • Uploaded By KATJohnRambo
  • Downloads 77
  • Last checked 2 hours ago
  • Date uploaded 1 week ago
  • Seeders 5
  • Leechers 3

Infohash : 9496D745FF6E2F6D9B98119A20869135F2FD9991





--------------------------------------------------------------------------------
Analyzed: Alter Bridge / Fortress
--------------------------------------------------------------------------------

DR         Peak         RMS     Duration Track
--------------------------------------------------------------------------------
DR11      -6.24 dB   -19.18 dB      6:29 01-Cry Of Achilles
DR11      -7.46 dB   -19.17 dB      4:14 02-Addicted To Pain
DR11      -6.26 dB   -20.55 dB      4:40 03-Bleed It Dry
DR11      -6.97 dB   -21.21 dB      5:13 04-Lover
DR12      -6.65 dB   -20.08 dB      4:47 05-The Uninvited
DR11      -7.10 dB   -20.08 dB      4:38 06-Peace Is Broken
DR11      -8.42 dB   -21.61 dB      5:59 07-Calm The Fire
DR11      -6.30 dB   -19.66 dB      5:38 08-Waters Rising
DR11      -7.67 dB   -20.45 dB      4:04 09-Farther Than The Sun
DR11      -8.73 dB   -20.78 dB      4:00 10-Cry A River
DR11      -6.85 dB   -19.72 dB      5:12 11-All Ends Well
DR11      -8.02 dB   -20.71 dB      7:30 12-Fortress
--------------------------------------------------------------------------------

Number of tracks:  12
Official DR value: DR11

Samplerate:        48000 Hz
Channels:          2
Bitrate:           320 kbps
Codec:             MP3
================================================================================



Files:

Alter Bridge - 2013 - Fortress
  • 12. Fortress.mp3 (17.2 MB)
  • 02. Addicted To Pain.mp3 (9.7 MB)
  • 03. Bleed It Dry.mp3 (10.7 MB)
  • 04. Lover.mp3 (11.9 MB)
  • 05. The Uninvited.mp3 (11.0 MB)
  • 06. Peace Is Broken.mp3 (10.6 MB)
  • 07. Calm The Fire.mp3 (13.7 MB)
  • 08. Waters Rising.mp3 (12.9 MB)
  • 09. Farther Than The Sun.mp3 (9.3 MB)
  • 10. Cry A River.mp3 (9.2 MB)
  • 11. All Ends Well.mp3 (11.9 MB)
  • 01. Cry Of Achilles.mp3 (14.8 MB)
  • foo_dr.txt (1.4 KB)

There are currently no comments. Feel free to leave one :)

Code:

  • udp://tracker.leechers-paradise.org:6969/announce