Destinos (2017)
Download: MC Livinho - Vizinha Gostosa (Web Clipe) DJ LK.mp3

Baaghi 2 2018 Hindi 720p PRE-DVDRip x264 AAC [MW]

  • Category Movies
  • Type Bollywood
  • Language English
  • Total size 1.0 GB
  • Uploaded By moviezworldz
  • Downloads 32728
  • Last checked 1 week ago
  • Date uploaded 2 weeks ago
  • Seeders 275
  • Leechers 112

Baaghi 2

ActionRomanceThriller

A battle-hardened army officer goes in search of his ex-lover's child who is mysteriously kidnapped. Neha reaches out to the only person who can help her with her plight, Ronnie. He goes deep into the underbelly of Goa, facing off against drug lords, menacing Russian henchmen, and blood thirsty animals. Daring stunts, chase sequences, air strikes, bomb blasts and other large-scale action sequences will be done with a bona-fide, larger than life approach, truly making it a spectacle.

Infohash : AE2031337F3DEAA3216AF94307A79885E1FE5600





General
Format : Matroska
Format version : Version 4 / Version 2
File size : 1.05 GiB
Duration : 2 h 12 min
Overall bit rate : 1 126 kb/s


Video
ID : 1
Format : AVC
Format/Info : Advanced Video Codec
Format profile : [email protected]
Format settings : CABAC / 4 Ref Frames
Format settings, CABAC : Yes
Format settings, RefFrames : 4 frames
Codec ID : V_MPEG4/ISO/AVC
Duration : 2 h 12 min
Bit rate : 1 000 kb/s
Width : 1 280 pixels
Height : 544 pixels
Display aspect ratio : 2.35:1
Frame rate mode : Constant
Frame rate : 25.000 FPS
Color space : YUV
Chroma subsampling : 4:2:0
Bit depth : 8 bits
Scan type : Progressive
Bits/(Pixel*Frame) : 0.057
Stream size : 947 MiB (88%)
Writing library : x264 core 148 r2708 86b7198
Default : Yes
Forced : No

Audio
ID : 2
Format : AAC
Format/Info : Advanced Audio Codec
Format profile : LC
Codec ID : A_AAC-2
Duration : 2 h 12 min
Bit rate : 128 kb/s
Channel(s) : 2 channels
Channel positions : Front: L R
Sampling rate : 44.1 kHz
Frame rate : 43.066 FPS (1024 SPF)
Compression mode : Lossy
Stream size : 122 MiB (11%)
Default : Yes
Forced : No
















Files:

Baaghi 2 2018 Hindi 720p PRE-DVDRip x264 AAC [MW]
  • Baaghi 2 2018 Hindi 720p PRE-DVDRip x264 AAC [MW].mkv (1.0 GB)

There are currently no comments. Feel free to leave one :)

Code:

  • udp://tracker.pirateparty.gr:6969/announce
  • udp://tracker.opentrackr.org:1337/announce
  • udp://tracker.opentrackr.org:80/announce
  • udp://tracker.vanitycore.co:6969/announce
  • udp://public.popcorn-tracker.org:6969/announce
  • udp://9.rarbg.to:2750/announce
  • udp://9.rarbg.me:2790/announce
  • udp://9.rarbg.com:2710/announce
  • udp://inferno.demonoid.pw:3391/announce
  • udp://tracker.internetwarriors.net:1337/announce
  • udp://ipv4.tracker.harry.lu:80/announce
  • udp://p4p.arenabg.ch:1337/announce
  • http://tracker.vanitycore.co:6969/announce
  • http://public.popcorn-tracker.org:6969/announce
  • udp://tracker.zer0day.to:1337/announce
  • udp://tracker.leechers-paradise.org:6969/announce
  • udp://coppersurfer.tk:6969/announce